<?xml version="1.0" standalone="no"?>
<!DOCTYPE svg PUBLIC "-//W3C//DTD SVG 1.1//EN" "http://www.w3.org/Graphics/SVG/1.1/DTD/svg11.dtd" >
<svg>
<metadata>
Created by FontForge 20090914 at Wed Dec  5 12:23:41 2012
 By www-data
Copyright Kenney 2011
&#226;&#128;&#156;KenPixel Mini Square&#226;&#128;&#157; is based on &#226;&#128;&#156;KenPixel Mini&#226;&#128;&#157; by &#226;&#128;&#156;Kenney&#226;&#128;&#157; (http://fontstruct.com/fontstructors/kenney)
</metadata>
<defs>
<font id="KenPixel-Mini-Square" horiz-adv-x="640" >
  <font-face 
    font-family="KenPixel Mini Square"
    font-weight="400"
    font-stretch="normal"
    units-per-em="1024"
    panose-1="0 0 4 0 0 0 0 0 0 0"
    ascent="819"
    descent="-205"
    x-height="640"
    cap-height="640"
    bbox="-128 -256 1152 1024"
    underline-thickness="51"
    underline-position="126"
    unicode-range="U+0020-U+FB02"
  />
<missing-glyph 
d="M320 90v102h-102v-102h102zM421 209v102h-203v-102h203zM320 328v102h-102v-102h102zM421 447v101h-101c-28.667 0 -52.667 -9.66699 -72 -29c-20 -20.667 -30 -44.667 -30 -72h203zM0 0v640h640v-640h-640z" />
    <glyph glyph-name=".notdef" 
d="M320 90v102h-102v-102h102zM421 209v102h-203v-102h203zM320 328v102h-102v-102h102zM421 447v101h-101c-28.667 0 -52.667 -9.66699 -72 -29c-20 -20.667 -30 -44.667 -30 -72h203zM0 0v640h640v-640h-640z" />
    <glyph glyph-name="space" unicode=" " horiz-adv-x="256" 
 />
    <glyph glyph-name="exclam" unicode="!" horiz-adv-x="256" 
d="M0 0v128h128v-128h-128zM0 256v384h128v-384h-128z" />
    <glyph glyph-name="quotedbl" unicode="&#x22;" horiz-adv-x="512" 
d="M0 384v256h128v-256h-128zM256 384v256h128v-256h-128z" />
    <glyph glyph-name="numbersign" unicode="#" horiz-adv-x="768" 
d="M384 256v128h-128v-128h128zM128 0v128h-128v128h128v128h-128v128h128v128h128v-128h128v128h128v-128h128v-128h-128v-128h128v-128h-128v-128h-128v128h-128v-128h-128z" />
    <glyph glyph-name="dollar" unicode="$" horiz-adv-x="512" 
d="M128 -128v128h-128v128h256v128h-256v384h128v128h128v-128h128v-128h-256v-128h256v-384h-128v-128h-128z" />
    <glyph glyph-name="percent" unicode="%" horiz-adv-x="768" 
d="M0 0v128h128v-128h-128zM512 0v128h128v-128h-128zM128 128v128h128v-128h-128zM256 256v128h128v-128h-128zM384 384v128h128v-128h-128zM0 512v128h128v-128h-128zM512 512v128h128v-128h-128z" />
    <glyph glyph-name="ampersand" unicode="&#x26;" horiz-adv-x="768" 
d="M512 384v128h-384v-128h384zM256 -128v128h-256v640h256v128h128v-128h256v-384h-512v-128h384v-128h-128v-128h-128z" />
    <glyph glyph-name="quotesingle" unicode="'" horiz-adv-x="256" 
d="M0 384v256h128v-256h-128z" />
    <glyph glyph-name="parenleft" unicode="(" horiz-adv-x="384" 
d="M128 0v128h128v-128h-128zM0 128v384h128v-384h-128zM128 512v128h128v-128h-128z" />
    <glyph glyph-name="parenright" unicode=")" horiz-adv-x="384" 
d="M0 0v128h128v-128h-128zM128 128v384h128v-384h-128zM0 512v128h128v-128h-128z" />
    <glyph glyph-name="asterisk" unicode="*" horiz-adv-x="512" 
d="M128 256v128h128v-128h-128zM0 384v128h128v-128h-128zM256 384v128h128v-128h-128zM128 512v128h128v-128h-128z" />
    <glyph glyph-name="plus" unicode="+" horiz-adv-x="512" 
d="M128 128v128h-128v128h128v128h128v-128h128v-128h-128v-128h-128z" />
    <glyph glyph-name="comma" unicode="," horiz-adv-x="256" 
d="M0 -128v256h128v-256h-128z" />
    <glyph glyph-name="hyphen" unicode="-" horiz-adv-x="512" 
d="M0 256v128h384v-128h-384z" />
    <glyph glyph-name="period" unicode="." horiz-adv-x="256" 
d="M0 0v128h128v-128h-128z" />
    <glyph glyph-name="slash" unicode="/" horiz-adv-x="768" 
d="M0 0v128h128v-128h-128zM128 128v128h128v-128h-128zM256 256v128h128v-128h-128zM384 384v128h128v-128h-128zM512 512v128h128v-128h-128z" />
    <glyph glyph-name="zero" unicode="0" 
d="M384 128v384h-256v-384h256zM0 0v640h512v-640h-512z" />
    <glyph glyph-name="one" unicode="1" horiz-adv-x="384" 
d="M128 0v512h-128v128h256v-640h-128z" />
    <glyph glyph-name="two" unicode="2" 
d="M0 0v384h384v128h-384v128h512v-384h-384v-128h384v-128h-512z" />
    <glyph glyph-name="three" unicode="3" 
d="M0 0v128h384v128h-384v128h384v128h-384v128h512v-640h-512z" />
    <glyph glyph-name="four" unicode="4" 
d="M384 0v256h-384v384h128v-256h256v256h128v-640h-128z" />
    <glyph glyph-name="five" unicode="5" 
d="M0 0v128h384v128h-384v384h512v-128h-384v-128h384v-384h-512z" />
    <glyph glyph-name="six" unicode="6" 
d="M384 128v128h-256v-128h256zM0 0v640h512v-128h-384v-128h384v-384h-512z" />
    <glyph glyph-name="seven" unicode="7" 
d="M128 0v256h128v-256h-128zM256 256v128h128v-128h-128zM384 384v128h-384v128h512v-256h-128z" />
    <glyph glyph-name="eight" unicode="8" 
d="M384 128v128h-256v-128h256zM384 384v128h-256v-128h256zM0 0v640h512v-640h-512z" />
    <glyph glyph-name="nine" unicode="9" 
d="M384 384v128h-256v-128h256zM0 0v128h384v128h-384v384h512v-640h-512z" />
    <glyph glyph-name="colon" unicode=":" horiz-adv-x="256" 
d="M0 128v128h128v-128h-128zM0 384v128h128v-128h-128z" />
    <glyph glyph-name="semicolon" unicode=";" horiz-adv-x="256" 
d="M0 0v256h128v-256h-128zM0 384v128h128v-128h-128z" />
    <glyph glyph-name="less" unicode="&#x3c;" horiz-adv-x="512" 
d="M256 0v128h128v-128h-128zM128 128v128h128v-128h-128zM0 256v128h128v-128h-128zM128 384v128h128v-128h-128zM256 512v128h128v-128h-128z" />
    <glyph glyph-name="equal" unicode="=" horiz-adv-x="512" 
d="M0 128v128h384v-128h-384zM0 384v128h384v-128h-384z" />
    <glyph glyph-name="greater" unicode="&#x3e;" horiz-adv-x="512" 
d="M0 0v128h128v-128h-128zM128 128v128h128v-128h-128zM256 256v128h128v-128h-128zM128 384v128h128v-128h-128zM0 512v128h128v-128h-128z" />
    <glyph glyph-name="question" unicode="?" 
d="M128 0v128h128v-128h-128zM128 256v128h256v128h-384v128h512v-384h-384z" />
    <glyph glyph-name="at" unicode="@" 
d="M0 0v640h512v-384h-256v128h128v128h-256v-384h384v-128h-512z" />
    <glyph glyph-name="A" unicode="A" 
d="M384 384v128h-256v-128h256zM0 0v640h512v-640h-128v256h-256v-256h-128z" />
    <glyph glyph-name="B" unicode="B" 
d="M0 0v640h512v-256h-128v128h-256v-128h256v-128h-256v-128h256v128h128v-256h-512z" />
    <glyph glyph-name="C" unicode="C" 
d="M0 0v640h512v-128h-384v-384h384v-128h-512z" />
    <glyph glyph-name="D" unicode="D" 
d="M384 128v384h128v-384h-128zM0 0v640h384v-128h-256v-384h256v-128h-384z" />
    <glyph glyph-name="E" unicode="E" 
d="M0 0v640h512v-128h-384v-128h384v-128h-384v-128h384v-128h-512z" />
    <glyph glyph-name="F" unicode="F" 
d="M0 0v640h512v-128h-384v-128h384v-128h-384v-256h-128z" />
    <glyph glyph-name="G" unicode="G" 
d="M0 0v640h512v-128h-384v-384h256v128h-128v128h256v-384h-512z" />
    <glyph glyph-name="H" unicode="H" 
d="M0 0v640h128v-256h256v256h128v-640h-128v256h-256v-256h-128z" />
    <glyph glyph-name="I" unicode="I" horiz-adv-x="256" 
d="M0 0v640h128v-640h-128z" />
    <glyph glyph-name="J" unicode="J" horiz-adv-x="512" 
d="M0 0v128h256v-128h-256zM256 128v384h-256v128h384v-512h-128z" />
    <glyph glyph-name="K" unicode="K" 
d="M384 0v256h128v-256h-128zM0 0v640h128v-256h256v-128h-256v-256h-128zM384 384v256h128v-256h-128z" />
    <glyph glyph-name="L" unicode="L" horiz-adv-x="512" 
d="M0 0v640h128v-512h256v-128h-384z" />
    <glyph glyph-name="M" unicode="M" horiz-adv-x="768" 
d="M0 0v640h640v-640h-128v512h-128v-512h-128v512h-128v-512h-128z" />
    <glyph glyph-name="N" unicode="N" 
d="M0 0v640h512v-640h-128v512h-256v-512h-128z" />
    <glyph glyph-name="O" unicode="O" 
d="M384 128v384h-256v-384h256zM0 0v640h512v-640h-512z" />
    <glyph glyph-name="P" unicode="P" 
d="M384 384v128h-256v-128h256zM0 0v640h512v-384h-384v-256h-128z" />
    <glyph glyph-name="Q" unicode="Q" 
d="M256 128v128h128v256h-256v-384h128zM0 0v640h512v-640h-512z" />
    <glyph glyph-name="R" unicode="R" 
d="M384 0v256h128v-256h-128zM0 0v640h512v-256h-128v128h-256v-128h256v-128h-256v-256h-128z" />
    <glyph glyph-name="S" unicode="S" 
d="M0 0v128h384v128h-384v384h512v-128h-384v-128h384v-384h-512z" />
    <glyph glyph-name="T" unicode="T" horiz-adv-x="512" 
d="M128 0v512h-128v128h384v-128h-128v-512h-128z" />
    <glyph glyph-name="U" unicode="U" 
d="M0 0v640h128v-512h256v512h128v-640h-512z" />
    <glyph glyph-name="V" unicode="V" horiz-adv-x="768" 
d="M256 0v128h128v-128h-128zM128 128v128h128v-128h-128zM384 128v128h128v-128h-128zM0 256v384h128v-384h-128zM512 256v384h128v-384h-128z" />
    <glyph glyph-name="W" unicode="W" horiz-adv-x="768" 
d="M0 0v640h128v-512h128v512h128v-512h128v512h128v-640h-640z" />
    <glyph glyph-name="X" unicode="X" 
d="M0 0v256h128v-256h-128zM384 0v256h128v-256h-128zM128 256v128h256v-128h-256zM0 384v256h128v-256h-128zM384 384v256h128v-256h-128z" />
    <glyph glyph-name="Y" unicode="Y" 
d="M128 0v128h256v128h-384v384h128v-256h256v256h128v-640h-384z" />
    <glyph glyph-name="Z" unicode="Z" 
d="M0 0v256h128v-128h384v-128h-512zM128 256v128h256v-128h-256zM384 384v128h-384v128h512v-256h-128z" />
    <glyph glyph-name="bracketleft" unicode="[" horiz-adv-x="384" 
d="M0 0v640h256v-128h-128v-384h128v-128h-256z" />
    <glyph glyph-name="backslash" unicode="\" horiz-adv-x="768" 
d="M512 0v128h128v-128h-128zM384 128v128h128v-128h-128zM256 256v128h128v-128h-128zM128 384v128h128v-128h-128zM0 512v128h128v-128h-128z" />
    <glyph glyph-name="bracketright" unicode="]" horiz-adv-x="384" 
d="M0 0v128h128v384h-128v128h256v-640h-256z" />
    <glyph glyph-name="asciicircum" unicode="^" horiz-adv-x="512" 
d="M0 384v128h128v-128h-128zM256 384v128h128v-128h-128zM128 512v128h128v-128h-128z" />
    <glyph glyph-name="underscore" unicode="_" 
d="M0 0v128h512v-128h-512z" />
    <glyph glyph-name="grave" unicode="`" 
d="M384 384v256h128v-256h-128z" />
    <glyph glyph-name="a" unicode="a" 
d="M384 384v128h-256v-128h256zM0 0v640h512v-640h-128v256h-256v-256h-128z" />
    <glyph glyph-name="b" unicode="b" 
d="M0 0v640h512v-256h-128v128h-256v-128h256v-128h-256v-128h256v128h128v-256h-512z" />
    <glyph glyph-name="c" unicode="c" 
d="M0 0v640h512v-128h-384v-384h384v-128h-512z" />
    <glyph glyph-name="d" unicode="d" 
d="M384 128v384h128v-384h-128zM0 0v640h384v-128h-256v-384h256v-128h-384z" />
    <glyph glyph-name="e" unicode="e" 
d="M0 0v640h512v-128h-384v-128h384v-128h-384v-128h384v-128h-512z" />
    <glyph glyph-name="f" unicode="f" 
d="M0 0v640h512v-128h-384v-128h384v-128h-384v-256h-128z" />
    <glyph glyph-name="g" unicode="g" 
d="M0 0v640h512v-128h-384v-384h256v128h-128v128h256v-384h-512z" />
    <glyph glyph-name="h" unicode="h" 
d="M0 0v640h128v-256h256v256h128v-640h-128v256h-256v-256h-128z" />
    <glyph glyph-name="i" unicode="i" horiz-adv-x="256" 
d="M0 0v640h128v-640h-128z" />
    <glyph glyph-name="j" unicode="j" horiz-adv-x="512" 
d="M0 0v128h256v-128h-256zM256 128v384h-256v128h384v-512h-128z" />
    <glyph glyph-name="k" unicode="k" 
d="M384 0v256h128v-256h-128zM0 0v640h128v-256h256v-128h-256v-256h-128zM384 384v256h128v-256h-128z" />
    <glyph glyph-name="l" unicode="l" horiz-adv-x="512" 
d="M0 0v640h128v-512h256v-128h-384z" />
    <glyph glyph-name="m" unicode="m" horiz-adv-x="768" 
d="M0 0v640h640v-640h-128v512h-128v-512h-128v512h-128v-512h-128z" />
    <glyph glyph-name="n" unicode="n" 
d="M0 0v640h512v-640h-128v512h-256v-512h-128z" />
    <glyph glyph-name="o" unicode="o" 
d="M384 128v384h-256v-384h256zM0 0v640h512v-640h-512z" />
    <glyph glyph-name="p" unicode="p" 
d="M384 384v128h-256v-128h256zM0 0v640h512v-384h-384v-256h-128z" />
    <glyph glyph-name="q" unicode="q" 
d="M256 128v128h128v256h-256v-384h128zM0 0v640h512v-640h-512z" />
    <glyph glyph-name="r" unicode="r" 
d="M384 0v256h128v-256h-128zM0 0v640h512v-256h-128v128h-256v-128h256v-128h-256v-256h-128z" />
    <glyph glyph-name="s" unicode="s" 
d="M0 0v128h384v128h-384v384h512v-128h-384v-128h384v-384h-512z" />
    <glyph glyph-name="t" unicode="t" horiz-adv-x="512" 
d="M128 0v512h-128v128h384v-128h-128v-512h-128z" />
    <glyph glyph-name="u" unicode="u" 
d="M0 0v640h128v-512h256v512h128v-640h-512z" />
    <glyph glyph-name="v" unicode="v" horiz-adv-x="768" 
d="M256 0v128h128v-128h-128zM128 128v128h128v-128h-128zM384 128v128h128v-128h-128zM0 256v384h128v-384h-128zM512 256v384h128v-384h-128z" />
    <glyph glyph-name="w" unicode="w" horiz-adv-x="768" 
d="M0 0v640h128v-512h128v512h128v-512h128v512h128v-640h-640z" />
    <glyph glyph-name="x" unicode="x" 
d="M0 0v256h128v-256h-128zM384 0v256h128v-256h-128zM128 256v128h256v-128h-256zM0 384v256h128v-256h-128zM384 384v256h128v-256h-128z" />
    <glyph glyph-name="y" unicode="y" 
d="M128 0v128h256v128h-384v384h128v-256h256v256h128v-640h-384z" />
    <glyph glyph-name="z" unicode="z" 
d="M0 0v256h128v-128h384v-128h-512zM128 256v128h256v-128h-256zM384 384v128h-384v128h512v-256h-128z" />
    <glyph glyph-name="braceleft" unicode="{" horiz-adv-x="512" 
d="M256 0v128h128v-128h-128zM128 128v128h-128v128h128v128h128v-384h-128zM256 512v128h128v-128h-128z" />
    <glyph glyph-name="bar" unicode="|" horiz-adv-x="256" 
d="M0 0v640h128v-640h-128z" />
    <glyph glyph-name="braceright" unicode="}" horiz-adv-x="512" 
d="M0 0v128h128v-128h-128zM128 128v384h128v-128h128v-128h-128v-128h-128zM0 512v128h128v-128h-128z" />
    <glyph glyph-name="asciitilde" unicode="~" 
d="M0 256v128h128v-128h-128zM256 256v128h128v-128h-128zM128 384v128h128v-128h-128zM384 384v128h128v-128h-128z" />
    <glyph glyph-name="exclamdown" unicode="&#xa1;" horiz-adv-x="256" 
d="M0 0v384h128v-384h-128zM0 512v128h128v-128h-128z" />
    <glyph glyph-name="cent" unicode="&#xa2;" horiz-adv-x="512" 
d="M128 0v128h-128v384h128v128h128v-128h128v-128h-256v-128h256v-128h-128v-128h-128z" />
    <glyph glyph-name="sterling" unicode="&#xa3;" 
d="M0 0v256h-128v128h128v256h512v-256h-128v128h-256v-128h128v-128h-128v-128h384v-128h-512z" />
    <glyph glyph-name="currency" unicode="&#xa4;" horiz-adv-x="896" 
d="M0 128v128h128v-128h-128zM256 128v128h256v-128h-256zM640 128v128h128v-128h-128zM128 256v256h128v-256h-128zM512 256v256h128v-256h-128zM0 512v128h128v-128h-128zM256 512v128h256v-128h-256zM640 512v128h128v-128h-128z" />
    <glyph glyph-name="yen" unicode="&#xa5;" horiz-adv-x="768" 
d="M256 0v128h-128v128h128v128h-128v128h384v-128h-128v-128h128v-128h-128v-128h-128zM0 512v128h128v-128h-128zM512 512v128h128v-128h-128z" />
    <glyph glyph-name="brokenbar" unicode="&#xa6;" horiz-adv-x="256" 
d="M0 0v256h128v-256h-128zM0 384v256h128v-256h-128z" />
    <glyph glyph-name="section" unicode="&#xa7;" 
d="M128 -128v128h256v128h128v-256h-384zM128 128v256h128v-128h128v-128h-256zM384 256v128h-128v128h256v-256h-128zM128 512v256h384v-128h-256v-128h-128z" />
    <glyph glyph-name="dieresis" unicode="&#xa8;" 
d="M0 512v128h128v-128h-128zM384 512v128h128v-128h-128z" />
    <glyph glyph-name="copyright" unicode="&#xa9;" horiz-adv-x="768" 
d="M256 256v128h128v-128h-128zM512 128v384h-384v-384h384zM0 0v640h640v-640h-640z" />
    <glyph glyph-name="ordfeminine" unicode="&#xaa;" 
d="M128 256v128h128v-128h-128zM384 256v128h128v-128h-128zM0 384v128h128v-128h-128zM256 384v128h-128v128h128v128h128v-384h-128zM0 768v128h256v-128h-256z" />
    <glyph glyph-name="guillemotleft" unicode="&#xab;" horiz-adv-x="896" 
d="M256 0v128h128v-128h-128zM640 0v128h128v-128h-128zM128 128v128h128v-128h-128zM512 128v128h128v-128h-128zM0 256v128h128v-128h-128zM384 256v128h128v-128h-128zM128 384v128h128v-128h-128zM512 384v128h128v-128h-128zM256 512v128h128v-128h-128zM640 512v128
h128v-128h-128z" />
    <glyph glyph-name="logicalnot" unicode="&#xac;" 
d="M384 128v128h-384v128h512v-256h-128z" />
    <glyph glyph-name="uni00AD" unicode="&#xad;" horiz-adv-x="512" 
d="M128 256v128h256v-128h-256z" />
    <glyph glyph-name="registered" unicode="&#xae;" horiz-adv-x="768" 
d="M256 256v128h128v-128h-128zM512 128v384h-384v-384h384zM0 0v640h640v-640h-640z" />
    <glyph glyph-name="macron" unicode="&#xaf;" 
d="M0 512v128h512v-128h-512z" />
    <glyph glyph-name="degree" unicode="&#xb0;" horiz-adv-x="512" 
d="M256 512v128h-128v-128h128zM0 384v384h384v-384h-384z" />
    <glyph glyph-name="plusminus" unicode="&#xb1;" 
d="M128 128v128h384v-128h-384zM256 384v128h-128v128h128v128h128v-128h128v-128h-128v-128h-128z" />
    <glyph glyph-name="uni00B2" unicode="&#xb2;" horiz-adv-x="512" 
d="M0 128v384h256v128h-256v128h384v-384h-256v-128h256v-128h-384z" />
    <glyph glyph-name="uni00B3" unicode="&#xb3;" horiz-adv-x="512" 
d="M0 128v128h256v128h-256v128h256v128h-256v128h384v-640h-384z" />
    <glyph glyph-name="acute" unicode="&#xb4;" horiz-adv-x="384" 
d="M0 768v128h256v-128h-256z" />
    <glyph glyph-name="uni00B5" unicode="&#xb5;" 
d="M0 -128v640h128v-384h256v384h128v-512h-384v-128h-128z" />
    <glyph glyph-name="paragraph" unicode="&#xb6;" 
d="M128 -128v384h-128v384h512v-768h-128v640h-128v-640h-128z" />
    <glyph glyph-name="periodcentered" unicode="&#xb7;" horiz-adv-x="256" 
d="M0 256v128h128v-128h-128z" />
    <glyph glyph-name="cedilla" unicode="&#xb8;" horiz-adv-x="384" 
d="M0 -256v128h128v128h128v-256h-256zM0 0v128h128v-128h-128z" />
    <glyph glyph-name="uni00B9" unicode="&#xb9;" horiz-adv-x="384" 
d="M128 384v256h128v-256h-128zM0 640v128h128v-128h-128z" />
    <glyph glyph-name="ordmasculine" unicode="&#xba;" 
d="M384 512v256h-128v-256h128zM128 384v512h384v-512h-384z" />
    <glyph glyph-name="guillemotright" unicode="&#xbb;" horiz-adv-x="896" 
d="M0 0v128h128v-128h-128zM384 0v128h128v-128h-128zM128 128v128h128v-128h-128zM512 128v128h128v-128h-128zM256 256v128h128v-128h-128zM640 256v128h128v-128h-128zM128 384v128h128v-128h-128zM512 384v128h128v-128h-128zM0 512v128h128v-128h-128zM384 512v128h128
v-128h-128z" />
    <glyph glyph-name="onequarter" unicode="&#xbc;" horiz-adv-x="896" 
d="M0 0v128h128v-128h-128zM128 128v128h128v-128h-128zM512 0v256h256v-256h-256zM256 256v128h128v-128h-128zM384 384v128h128v-128h-128zM0 512v128h128v-128h-128zM512 512v128h128v-128h-128z" />
    <glyph glyph-name="onehalf" unicode="&#xbd;" horiz-adv-x="896" 
d="M0 0v128h128v-128h-128zM512 0v128h256v-128h-256zM128 128v128h128v-128h-128zM256 256v128h128v-128h-128zM384 384v128h128v-128h-128zM0 512v128h128v-128h-128zM512 512v128h128v-128h-128z" />
    <glyph glyph-name="threequarters" unicode="&#xbe;" horiz-adv-x="896" 
d="M0 0v128h128v-128h-128zM128 128v128h128v-128h-128zM512 0v256h256v-256h-256zM256 256v128h128v-128h-128zM384 384v128h128v-128h-128zM0 384v256h256v-128h-128v-128h-128zM512 512v128h128v-128h-128z" />
    <glyph glyph-name="questiondown" unicode="&#xbf;" 
d="M0 0v384h384v-128h-256v-128h384v-128h-512zM256 512v128h128v-128h-128z" />
    <glyph glyph-name="Agrave" unicode="&#xc0;" 
d="M384 384v128h-256v-128h256zM0 0v640h512v-640h-128v256h-256v-256h-128zM0 768v128h256v-128h-256z" />
    <glyph glyph-name="Aacute" unicode="&#xc1;" 
d="M384 384v128h-256v-128h256zM0 0v640h512v-640h-128v256h-256v-256h-128zM256 768v128h256v-128h-256z" />
    <glyph glyph-name="Acircumflex" unicode="&#xc2;" 
d="M384 384v128h-256v-128h256zM0 0v640h512v-640h-128v256h-256v-256h-128zM0 768v128h128v-128h-128zM384 768v128h128v-128h-128zM128 896v128h256v-128h-256z" />
    <glyph glyph-name="Atilde" unicode="&#xc3;" 
d="M384 384v128h-256v-128h256zM0 0v640h512v-640h-128v256h-256v-256h-128zM0 768v128h128v-128h-128zM256 768v128h128v-128h-128zM128 896v128h128v-128h-128zM384 896v128h128v-128h-128z" />
    <glyph glyph-name="Adieresis" unicode="&#xc4;" 
d="M384 384v128h-256v-128h256zM0 0v640h512v-640h-128v256h-256v-256h-128zM0 768v128h128v-128h-128zM384 768v128h128v-128h-128z" />
    <glyph glyph-name="Aring" unicode="&#xc5;" 
d="M384 384v128h-256v-128h256zM0 0v640h512v-640h-128v256h-256v-256h-128zM128 768v128h256v-128h-256z" />
    <glyph glyph-name="AE" unicode="&#xc6;" horiz-adv-x="896" 
d="M0 0v256h128v-256h-128zM384 0v256h-256v256h128v-128h128v128h-128v128h512v-128h-256v-128h256v-128h-256v-128h256v-128h-384z" />
    <glyph glyph-name="Ccedilla" unicode="&#xc7;" 
d="M256 -256v128h128v-128h-128zM384 -128v128h-384v640h512v-128h-384v-384h384v-256h-128z" />
    <glyph glyph-name="Egrave" unicode="&#xc8;" 
d="M0 0v640h512v-128h-384v-128h384v-128h-384v-128h384v-128h-512zM0 768v128h256v-128h-256z" />
    <glyph glyph-name="Eacute" unicode="&#xc9;" 
d="M0 0v640h512v-128h-384v-128h384v-128h-384v-128h384v-128h-512zM256 768v128h256v-128h-256z" />
    <glyph glyph-name="Ecircumflex" unicode="&#xca;" 
d="M0 0v640h512v-128h-384v-128h384v-128h-384v-128h384v-128h-512zM0 768v128h128v-128h-128zM384 768v128h128v-128h-128zM128 896v128h256v-128h-256z" />
    <glyph glyph-name="Edieresis" unicode="&#xcb;" 
d="M0 0v640h512v-128h-384v-128h384v-128h-384v-128h384v-128h-512zM0 768v128h128v-128h-128zM384 768v128h128v-128h-128z" />
    <glyph glyph-name="Igrave" unicode="&#xcc;" horiz-adv-x="256" 
d="M0 0v640h128v-640h-128zM-128 768v128h256v-128h-256z" />
    <glyph glyph-name="Iacute" unicode="&#xcd;" horiz-adv-x="384" 
d="M0 0v640h128v-640h-128zM0 768v128h256v-128h-256z" />
    <glyph glyph-name="Icircumflex" unicode="&#xce;" horiz-adv-x="384" 
d="M0 0v640h128v-640h-128zM-128 768v128h128v-128h-128zM128 768v128h128v-128h-128zM0 896v128h128v-128h-128z" />
    <glyph glyph-name="Idieresis" unicode="&#xcf;" horiz-adv-x="384" 
d="M0 0v640h128v-640h-128zM-128 768v128h128v-128h-128zM128 768v128h128v-128h-128z" />
    <glyph glyph-name="Eth" unicode="&#xd0;" 
d="M384 128v384h128v-384h-128zM0 0v256h-128v128h128v256h384v-128h-256v-128h128v-128h-128v-128h256v-128h-384z" />
    <glyph glyph-name="Ntilde" unicode="&#xd1;" 
d="M0 0v640h512v-640h-128v512h-256v-512h-128zM0 768v128h128v-128h-128zM256 768v128h128v-128h-128zM128 896v128h128v-128h-128zM384 896v128h128v-128h-128z" />
    <glyph glyph-name="Ograve" unicode="&#xd2;" 
d="M384 128v384h-256v-384h256zM0 0v640h512v-640h-512zM0 768v128h256v-128h-256z" />
    <glyph glyph-name="Oacute" unicode="&#xd3;" 
d="M384 128v384h-256v-384h256zM0 0v640h512v-640h-512zM256 768v128h256v-128h-256z" />
    <glyph glyph-name="Ocircumflex" unicode="&#xd4;" 
d="M384 128v384h-256v-384h256zM0 0v640h512v-640h-512zM0 768v128h128v-128h-128zM384 768v128h128v-128h-128zM128 896v128h256v-128h-256z" />
    <glyph glyph-name="Otilde" unicode="&#xd5;" 
d="M384 128v384h-256v-384h256zM0 0v640h512v-640h-512zM0 768v128h128v-128h-128zM256 768v128h128v-128h-128zM128 896v128h128v-128h-128zM384 896v128h128v-128h-128z" />
    <glyph glyph-name="Odieresis" unicode="&#xd6;" 
d="M384 128v384h-256v-384h256zM0 0v640h512v-640h-512zM0 768v128h128v-128h-128zM384 768v128h128v-128h-128z" />
    <glyph glyph-name="multiply" unicode="&#xd7;" horiz-adv-x="768" 
d="M0 0v128h128v-128h-128zM512 0v128h128v-128h-128zM128 128v128h128v-128h-128zM384 128v128h128v-128h-128zM256 256v128h128v-128h-128zM128 384v128h128v-128h-128zM384 384v128h128v-128h-128zM0 512v128h128v-128h-128zM512 512v128h128v-128h-128z" />
    <glyph glyph-name="Oslash" unicode="&#xd8;" 
d="M384 128v128h-128v128h128v128h-256v-256h128v-128h128zM0 0v640h512v-640h-512z" />
    <glyph glyph-name="Ugrave" unicode="&#xd9;" 
d="M0 0v640h128v-512h256v512h128v-640h-512zM0 768v128h256v-128h-256z" />
    <glyph glyph-name="Uacute" unicode="&#xda;" 
d="M0 0v640h128v-512h256v512h128v-640h-512zM256 768v128h256v-128h-256z" />
    <glyph glyph-name="Ucircumflex" unicode="&#xdb;" 
d="M0 0v640h128v-512h256v512h128v-640h-512zM0 768v128h128v-128h-128zM384 768v128h128v-128h-128zM128 896v128h256v-128h-256z" />
    <glyph glyph-name="Udieresis" unicode="&#xdc;" 
d="M0 0v640h128v-512h256v512h128v-640h-512zM0 768v128h128v-128h-128zM384 768v128h128v-128h-128z" />
    <glyph glyph-name="Yacute" unicode="&#xdd;" 
d="M128 0v128h256v128h-384v384h128v-256h256v256h128v-640h-384zM0 768v128h256v-128h-256z" />
    <glyph glyph-name="Thorn" unicode="&#xde;" 
d="M384 256v128h-256v-128h256zM0 0v640h128v-128h384v-384h-384v-128h-128z" />
    <glyph glyph-name="germandbls" unicode="&#xdf;" 
d="M256 0v128h128v128h128v-256h-256zM256 256v128h128v-128h-128zM0 0v640h512v-256h-128v128h-256v-512h-128z" />
    <glyph glyph-name="agrave" unicode="&#xe0;" 
d="M384 384v128h-256v-128h256zM0 0v640h512v-640h-128v256h-256v-256h-128zM0 768v128h256v-128h-256z" />
    <glyph glyph-name="aacute" unicode="&#xe1;" 
d="M384 384v128h-256v-128h256zM0 0v640h512v-640h-128v256h-256v-256h-128zM256 768v128h256v-128h-256z" />
    <glyph glyph-name="acircumflex" unicode="&#xe2;" 
d="M384 384v128h-256v-128h256zM0 0v640h512v-640h-128v256h-256v-256h-128zM0 768v128h128v-128h-128zM384 768v128h128v-128h-128zM128 896v128h256v-128h-256z" />
    <glyph glyph-name="atilde" unicode="&#xe3;" 
d="M384 384v128h-256v-128h256zM0 0v640h512v-640h-128v256h-256v-256h-128zM0 768v128h128v-128h-128zM256 768v128h128v-128h-128zM128 896v128h128v-128h-128zM384 896v128h128v-128h-128z" />
    <glyph glyph-name="adieresis" unicode="&#xe4;" 
d="M384 384v128h-256v-128h256zM0 0v640h512v-640h-128v256h-256v-256h-128zM0 768v128h128v-128h-128zM384 768v128h128v-128h-128z" />
    <glyph glyph-name="aring" unicode="&#xe5;" 
d="M384 384v128h-256v-128h256zM0 0v640h512v-640h-128v256h-256v-256h-128zM128 768v128h256v-128h-256z" />
    <glyph glyph-name="ae" unicode="&#xe6;" horiz-adv-x="1024" 
d="M384 128v128h-256v-128h256zM768 384v128h-256v-128h256zM0 0v384h384v128h-256v128h768v-384h-384v-128h256v-128h-768z" />
    <glyph glyph-name="ccedilla" unicode="&#xe7;" 
d="M256 -256v128h128v-128h-128zM384 -128v128h-384v640h512v-128h-384v-384h384v-256h-128z" />
    <glyph glyph-name="egrave" unicode="&#xe8;" 
d="M0 0v640h512v-128h-384v-128h384v-128h-384v-128h384v-128h-512zM0 768v128h256v-128h-256z" />
    <glyph glyph-name="eacute" unicode="&#xe9;" 
d="M0 0v640h512v-128h-384v-128h384v-128h-384v-128h384v-128h-512zM256 768v128h256v-128h-256z" />
    <glyph glyph-name="ecircumflex" unicode="&#xea;" 
d="M0 0v640h512v-128h-384v-128h384v-128h-384v-128h384v-128h-512zM0 768v128h128v-128h-128zM384 768v128h128v-128h-128zM128 896v128h256v-128h-256z" />
    <glyph glyph-name="edieresis" unicode="&#xeb;" 
d="M0 0v640h512v-128h-384v-128h384v-128h-384v-128h384v-128h-512zM0 768v128h128v-128h-128zM384 768v128h128v-128h-128z" />
    <glyph glyph-name="igrave" unicode="&#xec;" horiz-adv-x="256" 
d="M0 0v640h128v-640h-128zM-128 768v128h256v-128h-256z" />
    <glyph glyph-name="iacute" unicode="&#xed;" horiz-adv-x="384" 
d="M0 0v640h128v-640h-128zM0 768v128h256v-128h-256z" />
    <glyph glyph-name="icircumflex" unicode="&#xee;" horiz-adv-x="384" 
d="M0 0v640h128v-640h-128zM-128 768v128h128v-128h-128zM128 768v128h128v-128h-128zM0 896v128h128v-128h-128z" />
    <glyph glyph-name="idieresis" unicode="&#xef;" horiz-adv-x="384" 
d="M0 0v640h128v-640h-128zM-128 768v128h128v-128h-128zM128 768v128h128v-128h-128z" />
    <glyph glyph-name="eth" unicode="&#xf0;" 
d="M384 128v256h-256v-256h256zM0 0v512h384v128h128v-640h-512zM256 640v128h128v-128h-128z" />
    <glyph glyph-name="ntilde" unicode="&#xf1;" 
d="M0 0v640h512v-640h-128v512h-256v-512h-128zM0 768v128h128v-128h-128zM256 768v128h128v-128h-128zM128 896v128h128v-128h-128zM384 896v128h128v-128h-128z" />
    <glyph glyph-name="ograve" unicode="&#xf2;" 
d="M384 128v384h-256v-384h256zM0 0v640h512v-640h-512zM0 768v128h256v-128h-256z" />
    <glyph glyph-name="oacute" unicode="&#xf3;" 
d="M384 128v384h-256v-384h256zM0 0v640h512v-640h-512zM256 768v128h256v-128h-256z" />
    <glyph glyph-name="ocircumflex" unicode="&#xf4;" 
d="M384 128v384h-256v-384h256zM0 0v640h512v-640h-512zM0 768v128h128v-128h-128zM384 768v128h128v-128h-128zM128 896v128h256v-128h-256z" />
    <glyph glyph-name="otilde" unicode="&#xf5;" 
d="M384 128v384h-256v-384h256zM0 0v640h512v-640h-512zM0 768v128h128v-128h-128zM256 768v128h128v-128h-128zM128 896v128h128v-128h-128zM384 896v128h128v-128h-128z" />
    <glyph glyph-name="odieresis" unicode="&#xf6;" 
d="M384 128v384h-256v-384h256zM0 0v640h512v-640h-512zM0 768v128h128v-128h-128zM384 768v128h128v-128h-128z" />
    <glyph glyph-name="divide" unicode="&#xf7;" horiz-adv-x="768" 
d="M256 0v128h128v-128h-128zM0 256v128h640v-128h-640zM256 512v128h128v-128h-128z" />
    <glyph glyph-name="oslash" unicode="&#xf8;" 
d="M384 128v128h-128v128h128v128h-256v-256h128v-128h128zM0 0v640h512v-640h-512z" />
    <glyph glyph-name="ugrave" unicode="&#xf9;" 
d="M0 0v640h128v-512h256v512h128v-640h-512zM0 768v128h256v-128h-256z" />
    <glyph glyph-name="uacute" unicode="&#xfa;" 
d="M0 0v640h128v-512h256v512h128v-640h-512zM256 768v128h256v-128h-256z" />
    <glyph glyph-name="ucircumflex" unicode="&#xfb;" 
d="M0 0v640h128v-512h256v512h128v-640h-512zM0 768v128h128v-128h-128zM384 768v128h128v-128h-128zM128 896v128h256v-128h-256z" />
    <glyph glyph-name="udieresis" unicode="&#xfc;" 
d="M0 0v640h128v-512h256v512h128v-640h-512zM0 768v128h128v-128h-128zM384 768v128h128v-128h-128z" />
    <glyph glyph-name="yacute" unicode="&#xfd;" 
d="M128 0v128h256v128h-384v384h128v-256h256v256h128v-640h-384zM0 768v128h256v-128h-256z" />
    <glyph glyph-name="thorn" unicode="&#xfe;" 
d="M384 256v128h-256v-128h256zM0 0v640h128v-128h384v-384h-384v-128h-128z" />
    <glyph glyph-name="ydieresis" unicode="&#xff;" 
d="M128 0v128h256v128h-384v384h128v-256h256v256h128v-640h-384zM0 768v128h128v-128h-128zM384 768v128h128v-128h-128z" />
    <glyph glyph-name="Ydieresis" unicode="&#x178;" 
d="M128 0v128h256v128h-384v384h128v-256h256v256h128v-640h-384zM0 768v128h128v-128h-128zM384 768v128h128v-128h-128z" />
    <glyph glyph-name="uni1E9E" unicode="&#x1e9e;" 
d="M256 0v128h128v128h128v-256h-256zM256 256v128h128v-128h-128zM0 0v640h512v-256h-128v128h-256v-512h-128z" />
    <glyph glyph-name="emdash" unicode="&#x2014;" horiz-adv-x="896" 
d="M0 256v128h768v-128h-768z" />
    <glyph glyph-name="quoteleft" unicode="&#x2018;" horiz-adv-x="256" 
d="M0 384v256h128v-256h-128z" />
    <glyph glyph-name="quoteright" unicode="&#x2019;" horiz-adv-x="256" 
d="M0 384v256h128v-256h-128z" />
    <glyph glyph-name="quotesinglbase" unicode="&#x201a;" horiz-adv-x="256" 
d="M0 -128v256h128v-256h-128z" />
    <glyph glyph-name="quotereversed" unicode="&#x201b;" horiz-adv-x="256" 
d="M0 384v256h128v-256h-128z" />
    <glyph glyph-name="quotedblleft" unicode="&#x201c;" horiz-adv-x="512" 
d="M0 384v256h128v-256h-128zM256 384v256h128v-256h-128z" />
    <glyph glyph-name="quotedblright" unicode="&#x201d;" horiz-adv-x="512" 
d="M0 384v256h128v-256h-128zM256 384v256h128v-256h-128z" />
    <glyph glyph-name="quotedblbase" unicode="&#x201e;" horiz-adv-x="512" 
d="M0 -128v256h128v-256h-128zM256 -128v256h128v-256h-128z" />
    <glyph glyph-name="dagger" unicode="&#x2020;" 
d="M256 -128v512h-128v128h128v128h128v-128h128v-128h-128v-512h-128z" />
    <glyph glyph-name="bullet" unicode="&#x2022;" horiz-adv-x="384" 
d="M0 256v256h256v-256h-256z" />
    <glyph glyph-name="ellipsis" unicode="&#x2026;" horiz-adv-x="768" 
d="M0 0v128h128v-128h-128zM256 0v128h128v-128h-128zM512 0v128h128v-128h-128z" />
    <glyph glyph-name="guilsinglleft" unicode="&#x2039;" horiz-adv-x="384" 
d="M128 0v128h128v-128h-128zM0 128v128h128v-128h-128zM128 256v128h128v-128h-128z" />
    <glyph glyph-name="guilsinglright" unicode="&#x203a;" horiz-adv-x="384" 
d="M0 0v128h128v-128h-128zM128 128v128h128v-128h-128zM0 256v128h128v-128h-128z" />
    <glyph glyph-name="Euro" unicode="&#x20ac;" 
d="M256 256v128h256v-128h-256zM0 0v640h512v-128h-384v-384h384v-128h-512z" />
    <glyph glyph-name="trademark" unicode="&#x2122;" horiz-adv-x="1280" 
d="M128 256v256h-128v128h384v-128h-128v-256h-128zM512 256v384h640v-384h-128v256h-128v-128h-128v128h-128v-256h-128z" />
    <glyph glyph-name="uniFB01" unicode="&#xfb01;" 
d="M0 0v512h128v-128h384v-384h-128v256h-256v-256h-128zM128 512v128h128v-128h-128zM384 512v128h128v-128h-128z" />
    <glyph glyph-name="uniFB02" unicode="&#xfb02;" 
d="M128 512v128h128v-128h-128zM0 0v512h128v-128h256v256h128v-640h-128v256h-256v-256h-128z" />
    <glyph glyph-name="glyph1" horiz-adv-x="0" 
 />
    <glyph glyph-name="glyph2" horiz-adv-x="256" 
 />
  </font>
</defs>
</svg>
